#TITLE:Peter Griffin Raps;
#SUBTITLE:(Cant Touch This);
#ARTIST:Peter Griffin;
#TITLETRANSLIT:;
#SUBTITLETRANSLIT:;
#ARTISTTRANSLIT:;
#CREDIT:;
#BANNER:;
#BACKGROUND:family-guy_evil-monkey_tie.jpg;
#LYRICSPATH:;
#CDTITLE:cdtitle.png;
#MUSIC:Family Guy - Peter Griffin Rap.mp3;
#OFFSET:-4.830;
#SAMPLESTART:43.540;
#SAMPLELENGTH:12.000;
#SELECTABLE:YES;
#BPMS:0.000=155.000;
#STOPS:5.750=0.750
,10.000=0.250
,10.250=0.270
,10.500=0.260
,10.750=0.240
,51.750=2.500
,53.750=1.750
,54.500=0.500
;
#BGCHANGES:;
// cache tags:
#FIRSTBEAT:0.750;
#LASTBEAT:155.250;
#SONGFILENAME:Songs/Music V.I.P ^_^/peter griffin raps/petergriffinraps.sm;
#HASMUSIC:1;
#HASBANNER:0;
#MUSICLENGTH:71.915;
// end cache tags

//---------------dance-single - Blank----------------
#NOTES:
     dance-single:
     Blank:
     Hard:
     10:
     0.638,0.729,0.626,0.139,0.813,266.000,45.000,10.000,0.000,0.000:

0000
0000
0000
1000
0000
0100
0000
0001
0000
0000
0000
0000
0000
0010
0000
1000
,
0000
0000
0000
0000
0000
0100
0000
2000
3002
0000
0003
0000
1000
0000
0100
0000
,
0001
0000
0000
0000
0000
0000
1000
0000
0001
0001
0001
0001
0000
0000
1001
0000
,
0000
1000
0000
0100
0000
1000
0000
0010
0000
0001
0000
0000
1000
0000
0100
0000
,
0010
0001
1000
0001
0000
1000
0100
0010
,
0001
0000
1000
0100
0000
0001
0010
0100
1000
0000
0000
0000
1000
0000
0100
0000
,
0001
0000
0010
0000
0100
0000
1001
0000
0000
1000
0000
0001
0100
0020
0000
1000
,
0000
0100
0030
0001
0000
1000
0000
0100
0000
0010
0000
0000
0001
0000
0010
0000
,
0100
0000
1000
0000
0001
0000
0010
0000
0001
0000
0000
0000
0000
1000
0100
0000
,
0001
0000
0010
0000
0100
0000
0001
0000
1000
0100
0010
0000
0001
0000
0100
0000
,
0010
0000
0001
0000
1000
0000
0100
0000
0010
0000
0000
1001
0000
0110
0000
1100
,
0000
2000
0000
0000
0000
0001
3000
0100
0000
0001
0000
1001
0000
1001
0000
1000
,
0000
0100
0000
0010
0000
0010
0000
0000
0000
0000
0000
0011
0000
1100
0000
0110
,
0000
0000
0000
1000
0000
0110
0000
0001
0000
0000
1001
1000
0100
0010
0001
0000
,
1000
0100
0010
0000
1001
0000
0000
0000
0000
0000
0000
0100
0000
0001
0000
1000
,
0000
0000
0000
0010
0000
1000
0000
0100
0010
0000
0001
0000
0010
0000
0101
0000
,
0000
0001
0000
1000
0000
0110
0000
0000
0000
0000
0000
1000
0000
1001
0000
0110
,
0000
0000
0000
1000
0000
0100
0010
0001
1000
0100
1000
0010
0001
1000
0100
0001
,
0010
0000
0000
0000
2002
0000
0000
3003
0100
0000
0010
0000
1000
0000
0001
0000
,
0001
0000
1000
0000
0010
0000
0100
0000
0010
0000
1000
0000
0100
0000
0001
0010
,
0000
0100
0000
1000
0000
0001
0000
0010
0000
0001
0000
1000
0000
0100
0000
0001
,
0000
0010
0000
0100
0000
0001
0000
1000
0000
0100
0000
0011
0000
0100
0000
1100
,
0000
0001
0000
0110
0000
0100
0000
1100
0000
0001
0000
0110
0000
2000
0000
0000
,
3000
0100
0010
0001
0010
0100
1000
0100
,
0110
0110
0110
2000
0000
3100
0010
1001
,
0110
0000
0110
0000
1000
0000
0100
0000
0000
0011
0000
0000
0000
1000
0000
0100
,
0000
0000
0000
0000
1000
0000
0001
0010
0100
1000
0000
0000
0001
0000
1010
0000
,
0000
0000
0000
0000
0000
0000
0000
1000
0000
0010
0000
0011
0000
0110
0000
1100
,
0000
0000
0000
0000
0000
0000
1000
0000
0200
0000
0000
0010
0300
0000
0001
0000
,
0010
0100
1001
1000
0100
0010
0001
0010
,
0100
0000
1000
0000
0001
1000
0001
0000
1000
0000
0110
0000
0001
0000
0010
0000
,
1100
0000
0000
0001
1000
0200
0300
0010
,
0001
1000
0000
0000
0000
0000
0000
0001
1000
0100
0010
0001
0010
0100
1000
0001
,
0010
0100
0001
1000
0100
0010
0100
1000
0100
0000
0010
0000
0011
0000
1100
0000
,
0110
0011
1100
1100
1100
0000
0000
0000
,
0000
0000
0000
0000
,
0000
0000
0000
0000
,
0000
0000
0000
0000
0000
0000
0000
0000
1000
0100
0010
0000
0001
0000
0000
0000
,
0000
0000
0000
0000
0000
0000
1000
0000
0100
0000
0010
0000
0000
1001
0000
0000
;
